Skip to main content

Jemimah Puddleduck Live at Triumph Brewing Company on 2011-04-20




Set 1:

crowd/announcements (0:39)
Rock Your Papa (6:12)
Don’t Let Go (12:58)
Monkey Speaks His Mind (5:57)
Memphis Radio (8:21)
Sugaree/Soul Serenade > (12:40)
2:19 (10:03)
Hollywood (8:14)
Time Will Tell (8:29)
Roll In It (8:00)

Set 2:

Leave A Light On (7:47)
Good Morning Little Schoolgirl (10:51)
Soul Island (10:00)
Annie Don’t Lie >// * (3:36)
//Into the Mystic (1) (4:52)
On Your Way Down (2) (9:44)
Easy Wind (6:55)


Collection JemimahPuddleduck
Band/Artist Jemimah Puddleduck
Date April 20, 2011
Venue Triumph Brewing Company
Location Philadelphia, PA

Source Sennheiser ME 64 > SD 722 (24/44.1)
Lineage SD 722> Firewire> Flac Frontend> FLAC24> TLH> .wav @24/44.1> WaveLab 6.10> R8Brain Pro> .wav @16/44.1> CD Wave> TLH> Flac16.
Taped by Chris Cafiero
Transferred by Edited, mixed and mastered by Alex Ford


Notes

SHNID 117654

Comment:

(1) Mookie Siegel – vocals
(2) Bob Gross - vocals


Notes:

- * Temporary battery outage
- All editing and mastering with UAD-1 in 24/44.1
- Files meta tagged with Tag&Rename


Lineup:

Mark Karan - guitar/vocals
Bob Gross - bass
Mookie Siegel - keys
Billy Lee Lewis - drums

Other Artist(s): Roy Jay Band opened


Shntool Output:


length expanded size cdr WAVE problems fmt ratio filename
0:39.42 6978428 B --- -- ----- wav 1.0000 JP2011-04-20-aud-d1t01.wav
6:12.39 65712572 B --- -- ----- wav 1.0000 JP2011-04-20-aud-d1t02.wav
12:58.49 137354492 B --- -- ----- wav 1.0000 JP2011-04-20-aud-d1t03.wav
5:57.09 62996012 B --- -- ----- wav 1.0000 JP2011-04-20-aud-d1t04.wav
8:21.04 88385852 B --- -- ----- wav 1.0000 JP2011-04-20-aud-d1t05.wav
12:40.59 134202812 B --- -- ----- wav 1.0000 JP2011-04-20-aud-d1t06.wav
10:03.34 106449212 B --- -- ----- wav 1.0000 JP2011-04-20-aud-d1t07.wav
8:14.65 87294524 B --- -- ----- wav 1.0000 JP2011-04-20-aud-d1t08.wav
8:29.21 89837036 B --- -- ----- wav 1.0000 JP2011-04-20-aud-d1t09.wav
8:00.55 84801404 B --- -- ----- wav 1.0000 JP2011-04-20-aud-d2t01.wav
7:47.43 82479980 B --- -- ----- wav 1.0000 JP2011-04-20-aud-d2t02.wav
10:51.64 114986972 B --- -- ----- wav 1.0000 JP2011-04-20-aud-d2t03.wav
10:00.36 105924716 B --- -- ----- wav 1.0000 JP2011-04-20-aud-d2t04.wav
3:36.05 38114204 B --- -- ----- wav 1.0000 JP2011-04-20-aud-d2t05.wav
4:52.54 51635852 B --- -- ----- wav 1.0000 JP2011-04-20-aud-d2t06.wav
9:44.27 103081148 B --- -- ----- wav 1.0000 JP2011-04-20-aud-d2t07.wav
6:55.41 73302476 B --- -- ----- wav 1.0000 JP2011-04-20-aud-d2t08.wav
135:26.47 1433537692 B 1.0000 (17 files)

Reviews

There are no reviews yet. Be the first one to write a review.
Uploaded by
Albix
on 3/22/2013
Views
90
Favorites
2
PEOPLE ALSO FOUND
Jemimah Puddleduck
by Jemimah Puddleduck
90
2
0
Source: Sennheiser ME 64 > SD 722 (24/44.1)
Little Feat
by Little Feat
269
1
0
Source: Sennheiser ME64(ORTF) > Sound Devices 722 (24/44.1)
Little Feat
by Little Feat
89
1
0
Source: SBD > MASTER DAT
Ratdog
by Ratdog
1,663
1
2
( 2 reviews )
Source: Pre-FM SBD -> Master Dat -> Sonic Solutions -> Master CD -> EAC -> SHN
Keller Williams
by Keller Williams
100
1
0
Source: MAC; (FOB) Sennheiser e835 > Sony D5 > Maxell XLII 90
Little Feat
by Little Feat
277
1
1
( 1 reviews )
Source: SBD > DAT
Little Feat
by Little Feat
147
1
0
Source: Audience Matrix; Schopes cmc6/mk4v + Sennheiser ME 64 > Tascam DR-680 (@24/44.1)
Little Feat
by Little Feat
161
1
0
Source: Unknown SBD Trade CDR
Little Feat
205
1
0
Source: Sennheiser ME64(ORTF) > Sound Devices 722 (24/44.1)
Radiators
by Radiators
301
0
0
Source: SBD > SB-M1 > D8